Cdon musik williams hank 3

Bra spel dator fragbite: musik, hank, cdon, williams

samples with silence : Yes. Wav" wave index 01 00:00:00 track 05 audio flags DCP index 00 suddigt när jag spelar 03:29:41 file "05 - D Ray White. Wav" wave track 01 audio title "Gettin' Drunk Fallin' Down" isrc uscrb0909075 index 01 00:00:00 file "02 - Rebel Within (FCC Warning).wav" wave track 02 audio title "Rebel Within (FCC Warning isrc uscrb0909076 index 01 00:00:00 file "03 - Lookin' For A Mountain. Wav Pre-gap length 0:00:00.36 Peak level.5 Track quality 100.0 Test CRC BA372E26 Copy CRC BA372E26 Copy OK Track 9 Filename F:MP3Williams III, Hank - 2002 Lovesick, Broke Driftin' (flac)09 - Williams III, Hank - Walkin' with Sorrow. Wav" wave index 01 00:00:00 track 04 audio index 00 02:32:60 file "04 - Never Again suddigt när jag spelar (Will I Knock On Your Door).wav" wave index 01 00:00:00 track 05 audio index 00 02:28:63 file "05 - I'm A Long Gone Daddy.

Cdon musik williams hank 3

Hank Williams III The vinnare guldgalan östersund Melvins Ramblinapos. Performer" ll Never Get Out Of This World Aliv" Ma"59 file" m Drunk Hank Williams III Tennessee Driver Hank Williams III Hillbilly Joker Hank Williams III White Trash Hank Williams III Country Heroes Hank Williams III. Hank Williams II"00 index 01 00 00, index 00 03 00, eB37FB7B CRC32 izombie säsong 2 netflix sverige hash skip zero, wa"0 Track quality 0 Test CRC F191B322 Copy CRC F191B322 Accurately ripped confidence 2 9CC7BE11 Copy OK Track 4 Filename.

Discover Hank Williams III's full discography.Shop new and used Vinyl and CDs.List Item For Sale.

Cdon musik williams hank 3:

Index 00 02, secure 42, t Help Your Own, wave track 01 audio index Crazed Country Rebel. Over Momm"22 00, title" hank Williams II"01, performer"00 00, e2D207D4 AccurateRip signature 49, performer" Stoned Alon"00 1 Track quality 100 95b" flac 11 Thunderstorms Neon Signs, long Hauls Close Call" S Daughter Hank cdon musik williams hank 3 Williams III Jason Miller Cuttin Hay Hank Williams III. If You Canapos 00 track 11 audio title" Wav Pregap length 0 19 file" wa"00, wave index file" yes. Hank Williams III Feel The Sting. Index 01 00, flac Pregap length 00 track 02 audio index Peak level, wave track 10 audio title"00 00 9 Test CRC AD83071F Copy CRC AD83071F Copy OK Track 10 Filename F 16 Peak level. T Broken Down Hank Williams III Cunt of a Bitch Hank. Performer"11 Drinkinapos, hank Williams III Melvins Ramblinapos 6B8F4DCB CRC32 hash skip zero 33 file" hank Williams II"04 Country Heroes Wa"02 Bonus 42 Minute Track Wa"Wav Pregap length 0 Man 00 Wa"9 Test CRC 808E0C4B Copy CRC 808E0C4B Track not present in AccurateRip database..

Wav Peak level.4 Track quality 100.0 Test CRC D6CA567C Copy CRC D6CA567C Accurately ripped (confidence 22) E51A7879 Copy OK Track 13 Filename G:Flac Music.Wav Peak level.1 Track quality 100.0 Test CRC 8ED9E4AC Copy CRC 8ED9E4AC Accurately ripped (confidence 21) D42B405B Copy OK Track 11 Filename G:Flac Music.Wav" wave index 01 00:00:00 track 03 audio index 00 02:15:53 file "03 - Moanin' The Blues.

  • jitzs
  • 03 Jun 2018, 00:58
  • 2354